The Asterisk War (EngDub) 720p x264 Download

The Asterisk War (EngDub) 720p x264 Download

Oct. 03, 2015
Your rating: 0
0 0 votes

Creator

Manabu Ono
Creator

Cast

Video trailer

Synopsis

Invertia was a meteor storm that caused an unprecedented disaster during the 20th century. Because of this disaster, numerous cities around the world were destroyed. However, within the meteor, an unknown element called mana was discovered. It allowed human technology to make rapid strides giving rise to a new species of super-powered humans, the Star Pulse Generation (Genestella). The Festas (Star Warrior Festivals) host battles between Genestella at a city of six academies called “Rikka,” also commonly known as “Asterisk.”

Scholarship student Ayato Amagiri transferred into Seidoukan Academy in order to fulfill his own wish, swearing he too will fight in this city.

Duration : 23 min 26 s
Overall bit rate mode : Variable
Overall bit rate : 1 449 kb/s

Video
Duration : 23 min 26 s
Bit rate : 1 255 kb/s
Maximum bit rate : 6 277 kb/s
Width : 1 280 pixels
Height : 720 pixels
Display aspect ratio : 16:9
Frame rate : 23.976 (24000/1001) FPS
Bits/(Pixel*Frame) : 0.057
Stream size : 210 MiB (87%)

Audio
Codec ID : 40
Duration : 23 min 26 s
Bit rate mode : Variable
Bit rate : 192 kb/s
Maximum bit rate : 202 kb/s
Channel(s) : 2 channels
Sampling rate : 44.1 kHz
Frame rate : 43.066 FPS (1024 spf)
Stream size : 32.2 MiB (13%)

The Asterisk War (EngDub) 720p x264 Download
The Asterisk War (EngDub) 720p x264 Download
The Asterisk War (EngDub) 720p x264 Download
Original title Gakusen Toshi Asterisk
First air date Oct. 03, 2015
Last air date Jun. 18, 2016
Seasons 2
Episodes 23
Status Returning Series

High Speed Download Links
Season 1
Torrent :
https://digimaza.com/tv-shows/the-asterisk-war-season-1/

Season 2
Torrent :
http://itorrents.org/torrent/107B355771BCD6938B971B01F3AD0B013B7101A5.torrent

Seasons and episodes

1 Season 1 Oct. 03, 2015
2 Season 2 Apr. 02, 2016

Similar titles

Leave a comment

Name *
Add a display name
Email *
Your email address will not be published