High School DxD BorN Complete (EngDub) 720p x265 Download

High School DxD BorN Complete (EngDub) 720p x265 Download

Dec. 09, 2015
Your rating: 0
9 1 vote

Creator

Creator

Cast

Video trailer

Synopsis

The Red Dragon Emperor, Issei Hyoudou, and the Occult Research Club are back in action as summer break comes for the students of Kuoh Academy. After their fight with Issei‚Äôs sworn enemy, Vali and the Chaos Brigade, it is clear just how inexperienced Rias Gremory’s team is. As a result, she and Azazel lead the club on an intense training regime in the Underworld to prepare them for the challenges that lie ahead.

While they slowly mature as a team, Issei will once again find himself in intimate situations with the girls of the Occult Research Club. Meanwhile, their adversaries grow stronger and more numerous as they rally their forces. And with the sudden appearance of Loki, the Evil God of Norse Mythology, the stage is set for epic fights and wickedly powerful devils in High School DxD BorN!

General

Format : Matroska
Format version : Version 4 / Version 2
File size : 136 MiB
Duration : 23 min 42 s
Overall bit rate : 801 kb/s

Video
ID : 1
Format : HEVC
Format/Info : High Efficiency Video Coding
Format profile : Main [email protected]@Main
Codec ID : V_MPEGH/ISO/HEVC
Duration : 23 min 41 s
Bit rate : 697 kb/s
Width : 1 280 pixels
Height : 720 pixels
Display aspect ratio : 16:9
Frame rate mode : Constant
Frame rate : 23.976 (24000/1001) FPS
Color space : YUV
Chroma subsampling : 4:2:0
Bit depth : 10 bits
Bits/(Pixel*Frame) : 0.032
Stream size : 118 MiB (87%)

Audio
ID : 2
Format : AAC
Format/Info : Advanced Audio Codec
Format profile : LC
Codec ID : A_AAC
Duration : 23 min 42 s
Bit rate : 99.9 kb/s
Channel(s) : 2 channels
Channel positions : Front: L R
Sampling rate : 48.0 kHz
Frame rate : 46.875 FPS (1024 spf)
Compression mode : Lossy
Delay relative to video : 9 ms
Stream size : 16.9 MiB (12%)
Language : English

Text #1
ID : 3
Format : ASS
Codec ID : S_TEXT/ASS
Codec ID/Info : Advanced Sub Station Alpha
Duration : 20 min 42 s
Bit rate : 760 b/s
Count of elements : 847
Compression mode : Lossless
Stream size : 115 KiB (0%)
Title : Signs/Songs [NH]
Language : English

Text #2
ID : 4
Format : ASS
Codec ID : S_TEXT/ASS
Codec ID/Info : Advanced Sub Station Alpha
Duration : 23 min 39 s
Bit rate : 788 b/s
Count of elements : 1262
Compression mode : Lossless
Stream size : 137 KiB (0%)
Title : FFF
Language : English

High School DxD BorN Complete (EngDub) 720p x265 Download
High School DxD BorN Complete (EngDub) 720p x265 Download
High School DxD BorN Complete (EngDub) 720p x265 Download
Original title High School DxD BorN
First air date Dec. 09, 2015
Last air date Oct. 19, 2017
Seasons 3
Episodes 12
Status Ended

 
Splitted Links (1GB)
http://www.spaste.com/p/?c=cxwZLh2351

Torrent :
http://itorrents.org/torrent/C89017B9F056B6D1EE9ACC234E93F13431A14CA7.torrent

Similar titles

Leave a comment

Name *
Add a display name
Email *
Your email address will not be published